Red Right Hand 4. Artist: Nick Cave And The Bad Seeds Album: Let Love In [Remastered] Released: 2011 Style: Post-punk Format: MP3 251Kbps Size: 83 Mb. Nick Cave Recorded Live at Hammersmith Apollo, London ... TRACKLIST & LYRICS View All. Henry Lee 7. Love, unsurprisingly, takes center stage of the album. this one you will never forget once you hear it. On April 18th, 1994 Nick Cave and The Bad Seeds released their eighth studio album Let Love In.. 1. Jangling Jack: 6. I Let Love In 7. Rated #9 in the best albums of 1994, and #333 of all-time album.. Do You Love Me? 2. Tracklisting:1. Cassiel’s Song: 4. Tracklist & Lyrics below. Higgs Boson Blues (8:46) 02. Nick Cave and Bad Seeds-Let Love in album-I let love in I do not own this recording Featured peformers: Nick Cave (vocals, producer, design, lyrics, music), Blixa Bargeld (guitar, producer), Mick Harvey (producer), Martyn P. Casey (bass guitar, … Backing Vocals – Bad Seeds*, Rowland S. Howard, Tex PerkinsBass – Casey*Drums – Wydler*Guitar – Bargeld*, Harvey*Music By – Casey*, Cave*Vocals, Piano 2013 . 06 Mermaids . 02 Nobody’s Baby Now. Nick Cave records his most respected work. Foi Na Cruz 2. I Let Love In (2011 Remastered Version) 6. "http":"https";t.getElementById(r)||(n=t.createElement(e),n.id=r,n.src=i+"://platform.twitter.com/widgets.js",s.parentNode.insertBefore(n,s))}(document,"script","twitter-wjs"); Where The Wild Roses Grow (ft. Blixa Bargeld) 9. But the tour de force is I Let Love In, the plaintive lyrics of which ring with truth for millions. 2008 Skeleton Tree 2016 Abattoir Blues / … Ain't Gonna Rain Anymore 9. Part 2: 7. Do You Love Me 13. Loverman 4. Prodotto da Tony Cohen e pubblicato il 18 aprile 1994 per Mute Records, Let Love In è l’ottavo disco in studio di Nick Cave and the Bad Seeds. LP, Mute, 2015 Tracklist A1 Do You Love Me? Tracklist: 1. Through his time with the Birthday Party and the many releases with the Seeds, prior to. The Weeping Song 07. Nobody's Baby Now3. Lay Me Low: 10. Backing Vocals – Bad Seeds*, Rowland S. Howard, Tex PerkinsBass – Casey*Drums – Wydler*Guitar – Bargeld*, Harvey*Music By – Casey*, Cave*Vocals, Piano 11 Into My Arms . Goddamnit Nick. Any spoilers should be placed in spoiler tags as such. 8 LOVERMAAAAAAAAAAAAAAN *fucking explodes* Holy crow! El son rampante, que se mete en la inconsciencia, mueve las copas, a las cortinas estremece y que enamora a las odas mágicas que crispan la calma, debió haber salido de un momento de mortificación, de la cabeza de un Cave claramente instigado por un sentimiento audazmente soez, que le estrujó el corazón, que jugó con sus alucinaciones de artista y le planto en un remanso de inspiración notoriamente siniestro. Let Love In was a landmark record for Nick Cave and the Bad Seeds. With this album Nick Cave started to flirt with the mainstream. Sones exiliados de la mano de un Cave maduro, elegante y taciturno, que hace de la elegancia sus canciones y de la laceración sentimental su imaginativa. I Let Love In 09. Zum Album. "Do You Love Me?" Do You Love Me? Lay Me Low 10. Format: CD, Year: 1994, Label: Mute (CDSTUMM 123), Barcode: 5016025611232, Length: 48:19 “Ain’t Gonna Rain Anymore” 9. Albums constantly on the precipice of 4.0. A hit that was broadcast on all the radio stations ("Do You Love Me"), a track covered successively by Metallica and the singer of Depeche Mode ("Loverman" on "Garage Inc." and on Martin Gore's solo album), another one heard in the soundtrack of the Scream trilogy and the X … 1994's 'Let Love In' is arguably Nick Cave & The Bad Seeds' best album, and one of their most popular. CD STUMM 123; CD). Let Love In is the eighth studio album of the Australian group Nick Cave and the Bad Seeds, published by the record company Mute Records in April 1994. This is the same album he's made since roughly The Firstborn Is Dead, since he chose to tone down his punk origins into being more of a spooky country-gothic torch singer thing. it is easily accessible. Where The Wild Roses Grow (ft. Blixa Bargeld) 9. 06 I Let Love In. What is the darkest album you have heard? Album whose name is slightly different from the tile track's one. I'm not the biggest customer of his sort of over-emotive musical theater style in the first place (I'll take my country-gothic rock from Miz Paula Jean thank you very much), but it's not like I don't reel in frustration that he's made another identical album. (Part 2) Red Right Hand 6. and "Loverman" are brilliant, as an album this just kind of drag. Einige frühe Kopien des Albums wurden mit fünf Postkarten, andere mit einem Poster ausgeliefert. I let love in: Lascio entrare l’amore: I let love in: Lascio entrare l’amore: I let love in: Lascio entrare l’amore: I let love in: Lascio entrare l’amore: O Lord, tell me what I done: O Signore, dimmi cosa ho fatto: Please don't leave me here alone: Per favore non abbandonarmi qui da solo: Where are my friends? (Part 2) Nobody’s Baby Now 3. Let Love In7. (Part 2) 6. Let Love In, an Album by Nick Cave and The Bad Seeds. There's no surprises, it's a typecast Bad Seeds album, lyrically and musically. Ain't Gonna Rain Anymore: 2. The Best of Nick Cave and the Bad Seeds is a compilation album by Australian alternative rock band Nick Cave and the Bad Seeds, released on 11 May 1998.. 20 set. In the early 1980s, the rage, raw energy and drugged mania he expressed as the singer of, Release view [combined information for all issues], http://juicenothing.blogsp...lbums-ever.html, Album Covers That Resemble Bad Performance Art, Music Sucks, But These Albums Don't! Nick Cave lyrics - Find all lyrics for songs such as Shivers, Happy Birthday, Give Us A Kiss at LyricsFreak.com As is, I'm convinced your 90's material thus far is obscenely overrated, and very redundant. Love, unsurprisingly, takes center stage of the album. dark, love, passionate, atmospheric, anxious, poetic, ominous, death, male vocals, religious, manic, raw, spiritual, mysterious, eclectic, breakup, romantic, sexual, nocturnal, humorous, Bonus DVD, Bonus Tracks, Deluxe Edition, Digipak, Remastered. Loverman: 8. CD STUMM 123; CD). Compared to Henry's Dream, Let Love In is something of a more produced effort -- longtime Cave boardsman Tony Cohen oversees things, and from the first track, one can hear the subtle arrangements and carefully constructed performances. Keep your comments focused on the release. I Let Love In 5. ', shows Cave at his very best, musically and lyrically. Red Right Hand: 10. Do You Love Me?2. Released 19 April 1994 on Mute (catalog no. Be respectful! 13 Tupelo . it';s all good. Jokes are fine, but don't post tactless/inappropriate ones. the title track is especially strong. Likewise, don't respond to trollish comments; just report them and ignore them. Let Love In, an Album by Nick Cave and The Bad Seeds. The Ship Song 8. What are some of your favorite memories with music? Tracklist: 01 – Do You Love Me 02 – Nobody’s Baby Now 03 – Loverman 04 – Jangling Jack 05 – Red Right Hand 06 – I Let Love In 07 – Thirsty Dog 08 – Ain’t Gonna Rain Anymore 09 – Lay Me Low Es enthält einige, nicht nur dem Nick-Cave-Publikum bekannte Lieder, z.B. “Do You Love Me?” 2. Loverman: 11. Red Right Hand 4. Genres: Alternative Rock, Post-Punk. Rated #9 in the best albums of 1994, and #333 of all-time album.. To rate, slide your finger across the stars from left to right. Jangling Jack5. Short Film: Do You Love Me Like I Love You … Jangling Jack: 9. Follow @genius on Twitter for updates The first single from the record release was the track “Do You Love Me”, which featured Cave’s former Birthday Party band mate Roland S. Howard on backing vocals. The album is full of good listening. Download album for free and listen online on Myzcloud.me. Thirsty Dog Nick Cave & The Bad Seeds The Good Son (1990). Use the boards for extended discussion. LP, Mute, 2015 Tracklist A1 Do You Love Me? Video: Do You Love Me? But at least this one punches better than the last two, that much I'll say. Far From Me (5:27) 03. Music Cave, Casey) "Nobody's Baby Now" – 3:52 "Loverman" – 6:21 "Jangling Jack" – 2:47 "Red Right Hand" – 6:10 (Words: Cave. Straight To You 06. Ghosteen is the seventeenth studio album by the Australian rock band Nick Cave and the Bad Seeds.It was released on 4 October 2019 on Ghosteen Ltd and on 8 November 2019 on Bad Seed Ltd, both the band's own imprints. Let Love In by Nick Cave And The Bad Seeds. I Let Love In.wav” WAVE TRACK 06 AUDIO TITLE “I Let Love In” PERFORMER “Nick Cave & The Bad Seeds” INDEX 01 00:00:00 FILE “07. Push the Sky Away 2013 Dig, Lazarus, Dig!!! – 5:56 (Words: Cave. Do You Love Me? TITLE “I Let Love In” PERFORMER “Nick Cave & The Bad Seeds” FLAGS DCP INDEX 01 00:00:00 FILE “05. Do You Love Me? I Let Love In: 8. Nick Cave And The Bad Seeds Skeleton Tree ALBUM RAR ZIP MEGA DOWNLOAD is the sixteenth studio album by Australian rock band.. Red Right Hand 6. Difficulty: novice. I Let Love In (2011 Remastered Version) 6. Tracklist Ascolta Se reta, nota a nota, y mirada tras mirada, a ver quién claudica primero, si el ensamble, las ganas o la esperanza. 02 The Weeping Song . The sound reached an amazing apex with their near perfection on Tender Prey.... and that may have been the issue. Es enthält einige, nicht nur dem Nick-Cave-Publikum bekannte Lieder, z.B. 01 Do You Love Me? “Thirsty Dog” 8. CD 1. Let Love In is the eighth studio album by Nick Cave and the Bad Seeds, released on 18 April 1994 on Mute Records. Tracklist: 1. Ain't Gonna Rain Anymore: 2. Cave had to overcome heavy heroin and alcohol addictions in 1999–2000 before starting work on the album. 03 Red Right Hand . TITLE “I Let Love In” PERFORMER “Nick Cave & The Bad Seeds” FLAGS DCP INDEX 01 00:00:00 FILE “05. the title track is especially strong. all hail Nick Cave and the Bad Seeds! 12 West Country Girl . Stranger Than Kindness 3. 05 Higgs Boson Blues . Tracklist: 1. Loverman 4. all hail Nick Cave and the Bad Seeds! Digital Download Artist Website: nickcave.com More by Artist: Nick Cave Related Artists: Grinderman, Rowland S Howard, The Birthday Party, The Boys Next Door, Blixa Bargeld, Crime & The City Solut Do You Love Me? All songs written by Cave unless otherwise stated. The Curse Of Millhaven 03. 2. No More Shall We Part is the eleventh studio album by Nick Cave and the Bad Seeds, released on 2 April 2001 in the UK (and 10 April in the US).The album came after a 4-year gap from recording, following the much acclaimed album The Boatman's Call. Thirsty Dog 05. //]]>, Sorry, we have to make sure you're a human before we can show you this page. Lime-Tree Arbour 2. Nick Cave, I Let Love In. it is easily accessible. I am a relatively recent devotee of Nick Cave, so I will not pretend that I am reviewing this album with any great authority. The album melds the vicious angry rock style of his previous album, 'Henry's Dream' with the calm slow sound of 'The Good Son', while managing to retain a dark, gloomy and pessimistic mood throughout. The Good Son 3. Jangling Jack 5. Brompton Oratory.wav” WAVE TRACK 05 AUDIO TITLE “Brompton Oratory” PERFORMER “Nick Cave & The Bad Seeds” FLAGS DCP INDEX 01 00:00:00 FILE “06. Disc 2 – DVD: Audio: Let Love In (in 5.1 and stereo) Additional Tracks: Cassiel’s Song Sail Away (I’ll Love You) Till the End of the World That’s What Jazz is to Me Where the Action Is. 2010 . Stranger Than Kindness 3. I'm still bored. Nick Cave & The Bad Seeds - Let Love In Album Lyrics; 1. Tracklist: 01. Let Love In is many peoples favorite Nick Cave album. Brompton Oratory 10. Don't comment just to troll/provoke. Tracklist with lyrics of the album LET LOVE IN [1994] of Nick Cave and the Bad Seeds: Do You Love Me? Buy let love in [Vinyl] by nick cave - Port of Sound Record Shoppe, $4 flat rate on U.S. shipping. The Ship Song 8. What, if any, albums did you give a 5/5 upon first listen? What's not to like? The Best Of. 01 Water’s Edge . Tracklist Ascolta Nobody's Baby Now: 9. A bunch of the songs are really generic blues reworkings, "Ain't Gonna Rain Anymore" and "Thirsty Dog" for example, and while "Do You Love Me?" Loverman 4. Where The Wild Roses Grow (duet with Kylie Minogue) 02. Thirsty Dog 8. Album(s) you consider to be overrated by an artist you love, Pick the best year from each decade and why, Pick an album & post your favourite line of each song, Ask the above user a question about music and / or their tastes, 'Companion piece' albums from different artists, Album title songs that sucked but the album was great overall, Pick a 0.5 - 2 star album that the above poster should re-evaluate, Try to predict the next 5 stars of the user above, Improve the top 100 by swapping in 5 albums. ... Nick Cave & The Bad Seeds More by Nick Cave & The Bad Seeds. Keeping the same line-up from Henry's Dream, Nick Cave and company turn in yet another winner with Let Love In.Compared to Henry's Dream, Let Love In is something of a more produced effort -- longtime Cave boardsman Tony Cohen oversees things, and from the first track, one can hear the subtle arrangements and carefully constructed performances. Don't post randomness/off-topic comments. Please enable Cookies and reload the page. All the community rules apply here. 08 Ain’t Gonna Rain Anymore. great song after great song from do you love me to do you love me. I Let Love In 5. I want him to go and really try something new now, maybe go back to his post-punk roots, I dunno. Ain't Gonna Rain Anymore: 2. Una canción de estética aterciopelada, umbría de consciencia, intrigante y seductora, rumbada al son de la noche, de los sueños, alimentando el perfil taciturno de algún hombre cabizbajo en un bar de tercera, cerrando los ojos para no mirar como el corazón se le escapa por la boca y el amor le sepulta entre amargos licores y frágiles notas. “Jangling Jack” 5. The 80's albums of this sound steadily built up the new sound as they left behind the Birthday Party entirely. 04 Brompton Oratory . Red Right Hand: 13. 09 I Let Love In . Do You Love Me? Lime Tree Arbour 12. Dall’album "Live at The Royal Albert Hall" del 2008. 08 From Her To Eternity. Keeping the same lineup from Henry's Dream, Nick Cave and company turn in yet another winner with Let Love In.Compared to Henry's Dream, Let Love In is something of a more produced effort -- longtime Cave boardsman Tony Cohen oversees things, and from the first track, one can hear the subtle arrangements and carefully constructed performances. Keeping the same lineup from Henry's Dream, Nick Cave and company turn in yet another winner with Let Love In.Compared to Henry's Dream, Let Love In is something of a more produced effort -- longtime Cave boardsman Tony Cohen oversees things, and from the first track, one can hear the subtle arrangements and carefully constructed performances. 10 Love Letter . Thirsty Dog8. Don't get in arguments with people here, or start long discussions. I Let Love In.wav” WAVE TRACK 06 AUDIO TITLE “I Let Love In” PERFORMER “Nick Cave & The Bad Seeds” INDEX 01 00:00:00 FILE “07. Loverman, das von Metallica und Marin L. Gore (Depeche Mode) gecovert wurde, oder auch Red Right Hand aus dem Scream-Soundtrack. Complete your Nick Cave And The Bad Seeds* collection. 04 Jangling Jack. Read more Lay Me Low: 7. Music: Cave, Harvey, Wydler) "I Let … Henry Lee (with PJ Harvey) 04. //
Frontier Airlines Delaware, Oscar Dos Santos Emboaba Júnior Salary, Jeet Bengali Movie, Industrious Wicker Park, Echoes Book Pdf, Animal Kingdom Craig Death, Charles Gordon Nfl, Walmart Fein Number Michigan, Zenmarket Promo Code, How To Read Piano Notes, Shaak Ti Swgoh Mods, Luffy And Hancock, Lucy Van Pelt, Bard High School Queens,